Farewell.to.the.Ark.1984.1080p.BluRay.x264.DTS-WiKi

Kod:
http://uploaded.net/file/frjjf6xe/Farewell.to.the.Ark.1984.1080p.BluRay.x264.DTS-WiKi.part16.rar
http://uploaded.net/file/so7v5c91/Farewell.to.the.Ark.1984.1080p.BluRay.x264.DTS-WiKi.part15.rar
http://uploaded.net/file/1jsn0rwf/Farewell.to.the.Ark.1984.1080p.BluRay.x264.DTS-WiKi.part14.rar
http://uploaded.net/file/ehp9l6ok/Farewell.to.the.Ark.1984.1080p.BluRay.x264.DTS-WiKi.part13.rar
http://uploaded.net/file/xoi8oor4/Farewell.to.the.Ark.1984.1080p.BluRay.x264.DTS-WiKi.part12.rar
http://uploaded.net/file/0vfcthyr/Farewell.to.the.Ark.1984.1080p.BluRay.x264.DTS-WiKi.part11.rar
http://uploaded.net/file/n1n0l8yn/Farewell.to.the.Ark.1984.1080p.BluRay.x264.DTS-WiKi.part10.rar
http://uploaded.net/file/kitx7j8i/Farewell.to.the.Ark.1984.1080p.BluRay.x264.DTS-WiKi.part09.rar
http://uploaded.net/file/qjoms56h/Farewell.to.the.Ark.1984.1080p.BluRay.x264.DTS-WiKi.part08.rar
http://uploaded.net/file/dhapanfq/Farewell.to.the.Ark.1984.1080p.BluRay.x264.DTS-WiKi.part07.rar
http://uploaded.net/file/3tpowk3t/Farewell.to.the.Ark.1984.1080p.BluRay.x264.DTS-WiKi.part06.rar
http://uploaded.net/file/3qfupw9t/Farewell.to.the.Ark.1984.1080p.BluRay.x264.DTS-WiKi.part05.rar
http://uploaded.net/file/u9e8y70z/Farewell.to.the.Ark.1984.1080p.BluRay.x264.DTS-WiKi.part04.rar
http://uploaded.net/file/qxf84jz7/Farewell.to.the.Ark.1984.1080p.BluRay.x264.DTS-WiKi.part03.rar
http://uploaded.net/file/gevbxj6m/Farewell.to.the.Ark.1984.1080p.BluRay.x264.DTS-WiKi.part02.rar
http://uploaded.net/file/3cbvl123/Farewell.to.the.Ark.1984.1080p.BluRay.x264.DTS-WiKi.part01.rar
Kod:
http://rapidgator.net/file/ffa2ac3d89b6af57bae9f2946be23209/Farewell.to.the.Ark.1984.1080p.BluRay.x264.DTS-WiKi.part02.rar.html
http://rapidgator.net/file/d0b35c53c83a1c7cdd1e2ffbc67d0fc0/Farewell.to.the.Ark.1984.1080p.BluRay.x264.DTS-WiKi.part04.rar.html
http://rapidgator.net/file/6cf9882883372619bc93706b1590be01/Farewell.to.the.Ark.1984.1080p.BluRay.x264.DTS-WiKi.part10.rar.html
http://rapidgator.net/file/b7621de357b866c7c3fdf1f72920abc5/Farewell.to.the.Ark.1984.1080p.BluRay.x264.DTS-WiKi.part06.rar.html
http://rapidgator.net/file/3d6f13855374ae97c3c74b50db1a681a/Farewell.to.the.Ark.1984.1080p.BluRay.x264.DTS-WiKi.part07.rar.html
http://rapidgator.net/file/1060af7ce98acf272882a4da33cbad74/Farewell.to.the.Ark.1984.1080p.BluRay.x264.DTS-WiKi.part05.rar.html
http://rapidgator.net/file/8791c7b5d80aec7f6b6d286d3eac90d2/Farewell.to.the.Ark.1984.1080p.BluRay.x264.DTS-WiKi.part15.rar.html
http://rapidgator.net/file/f78806612003291c0f8ce5b78ef7e1bc/Farewell.to.the.Ark.1984.1080p.BluRay.x264.DTS-WiKi.part08.rar.html
http://rapidgator.net/file/c60bc6a538388df3a8e3869077509b70/Farewell.to.the.Ark.1984.1080p.BluRay.x264.DTS-WiKi.part01.rar.html
http://rapidgator.net/file/9e1c038a122a1fc82327d3ea0927765b/Farewell.to.the.Ark.1984.1080p.BluRay.x264.DTS-WiKi.part03.rar.html
http://rapidgator.net/file/26d083c597877d60e118f848e16d5e20/Farewell.to.the.Ark.1984.1080p.BluRay.x264.DTS-WiKi.part09.rar.html
http://rapidgator.net/file/b6e354d797b837d85ffdc8f511045fc8/Farewell.to.the.Ark.1984.1080p.BluRay.x264.DTS-WiKi.part13.rar.html
http://rapidgator.net/file/2bff97e96188f8dbd93b3454504cec0f/Farewell.to.the.Ark.1984.1080p.BluRay.x264.DTS-WiKi.part12.rar.html
http://rapidgator.net/file/196d62522259729c9d9b057997583d69/Farewell.to.the.Ark.1984.1080p.BluRay.x264.DTS-WiKi.part14.rar.html
http://rapidgator.net/file/7c19c811f59b0b9d803fe8a7ed84c6f5/Farewell.to.the.Ark.1984.1080p.BluRay.x264.DTS-WiKi.part11.rar.html
http://rapidgator.net/file/8a75276356e896b15f2b6f350f1c25ac/Farewell.to.the.Ark.1984.1080p.BluRay.x264.DTS-WiKi.part16.rar.html
Kod:
http://www.imdb.com/title/tt0088041/


Kod:
Format                                   : Matroska
Format version                           : Version 2
File size                                : 14.7 GiB
Duration                                 : 2h 7mn
Overall bit rate                         : 16.5 Mbps
Movie name                               : YiFan @ WiKi
Encoded date                             : UTC 2015-10-31 06:12:26
Writing application                      : mkvmerge v5.8.0 ('No Sleep / Pillow') built on Sep  2 2012 15:37:04
Writing library                          : libebml v1.2.3 + libmatroska v1.3.0

Video
ID                                       : 1
Format                                   : AVC
Format/Info                              : Advanced Video Codec
Format profile                           : High@L4.1
Format settings, CABAC                   : Yes
Format settings, ReFrames                : 4 frames
Codec ID                                 : V_MPEG4/ISO/AVC
Duration                                 : 2h 7mn
Bit rate                                 : 14.7 Mbps
Width                                    : 1 792 pixels
Height                                   : 1 080 pixels
Display aspect ratio                     : 1.659
Frame rate                               : 23.976 fps
Color space                              : YUV
Chroma subsampling                       : 4:2:0
Bit depth                                : 8 bits
Scan type                                : Progressive
Bits/(Pixel*Frame)                       : 0.317
Stream size                              : 13.1 GiB (89%)
Writing library                          : x264 core 124 r2197+666+28 3970b70 tMod+MixAQ [8-bit@4:2:0 X86_64]
Encoding settings                        : cabac=1 / ref=4 / deblock=1:-2:-2 / analyse=0x3:0x133 / me=tesa / subme=11 / psy=1 / fade_compensate=0.00 / psy_rd=1.05:0.10 / mixed_ref=1 / me_range=32 / chroma_me=1 / trellis=2 / 8x8dct=1 / cqm=0 / deadzone=21,11 / fast_pskip=0 / chroma_qp_offset=-1 / threads=12 / sliced_threads=0 / nr=0 / decimate=0 / interlaced=0 / bluray_compat=0 / constrained_intra=0 / fgo=0 / bframes=8 / b_pyramid=2 / b_adapt=2 / b_bias=0 / direct=3 / weightb=1 / open_gop=0 / weightp=2 / keyint=250 / keyint_min=23 / scenecut=40 / intra_refresh=0 / rc_lookahead=250 / rc=crf / mbtree=0 / crf=18.8000 / qcomp=0.75 / qpmin=0 / qpmax=69 / qpstep=4 / vbv_maxrate=38000 / vbv_bufsize=30000 / crf_max=0.0 / nal_hrd=none / ip_ratio=1.20 / pb_ratio=1.10 / aq=1 / aq-strength=0.75 / aq-sensitivity=10.00 / aq-ifactor=1.00 / aq-pfactor=1.00 / aq-bfactor=1.00 / aq2=0
Language                                 : Japanese
Default                                  : Yes
Forced                                   : No

Audio
ID                                       : 2
Format                                   : DTS
Format/Info                              : Digital Theater Systems
Codec ID                                 : A_DTS
Duration                                 : 2h 7mn
Bit rate mode                            : Constant
Bit rate                                 : 1 510 Kbps
Channel(s)                               : 2 channels
Channel positions                        : Front: L R
Sampling rate                            : 48.0 KHz
Bit depth                                : 16 bits
Compression mode                         : Lossy
Stream size                              : 1.34 GiB (9%)
Language                                 : Japanese
Default                                  : Yes
Forced                                   : No

Menu
00:00:00.000                             : en:00:00:00.000
00:02:20.515                             : en:00:02:20.515
00:04:40.113                             : en:00:04:40.113
00:06:02.362                             : en:00:06:02.362
00:07:55.600                             : en:00:07:55.600
00:13:04.575                             : en:00:13:04.575
00:14:27.784                             : en:00:14:27.784
00:21:08.767                             : en:00:21:08.767
00:23:32.411                             : en:00:23:32.411
00:23:57.436                             : en:00:23:57.436
00:27:19.847                             : en:00:27:19.847
00:28:24.453                             : en:00:28:24.453
00:30:30.245                             : en:00:30:30.245
00:34:03.333                             : en:00:34:03.333
00:42:09.193                             : en:00:42:09.193
00:43:30.483                             : en:00:43:30.483
00:46:37.420                             : en:00:46:37.420
00:48:19.146                             : en:00:48:19.146
00:52:31.940                             : en:00:52:31.940
00:58:27.963                             : en:00:58:27.963
01:00:16.863                             : en:01:00:16.863
01:04:20.690                             : en:01:04:20.690
01:08:28.396                             : en:01:08:28.396
01:11:33.706                             : en:01:11:33.706
01:14:59.161                             : en:01:14:59.161
01:18:14.315                             : en:01:18:14.315
01:22:05.129                             : en:01:22:05.129
01:27:26.658                             : en:01:27:26.658
01:28:04.696                             : en:01:28:04.696
01:28:53.870                             : en:01:28:53.870
01:32:26.791                             : en:01:32:26.791
01:33:42.492                             : en:01:33:42.492
01:34:21.155                             : en:01:34:21.155
01:35:35.980                             : en:01:35:35.980
01:38:59.600                             : en:01:38:59.600
01:40:06.083                             : en:01:40:06.083
01:41:12.316                             : en:01:41:12.316
01:42:04.744                             : en:01:42:04.744
01:44:04.155                             : en:01:44:04.155
01:45:02.046                             : en:01:45:02.046
01:47:47.211                             : en:01:47:47.211
01:53:10.242                             : en:01:53:10.242
01:58:27.309                             : en:01:58:27.309
02:03:26.816                             : en:02:03:26.816
02:04:47.814                             : en:02:04:47.814